<?xml version="1.0" standalone="no"?>
<!DOCTYPE svg PUBLIC "-//W3C//DTD SVG 1.1//EN" "http://www.w3.org/Graphics/SVG/1.1/DTD/svg11.dtd" >
<svg xmlns="http://www.w3.org/2000/svg">
<metadata>Generated by IcoMoon</metadata>
<defs>
<font id="icomoon" horiz-adv-x="1024">
<font-face units-per-em="1024" ascent="960" descent="-64" />
<missing-glyph horiz-adv-x="1024" />
<glyph unicode="&#x20;" d="" horiz-adv-x="512" />
<glyph unicode="&#xe600;" d="M76.8 381.44c0-86.016 69.632-156.672 156.672-156.672 86.016 0 156.672 69.632 156.672 156.672 0 64.512-38.912 118.784-94.208 143.36l8.192 21.504 181.248-187.392c0 0 0 0 1.024-1.024 0 0 0 0 1.024-1.024 0 0 1.024 0 1.024-1.024 0 0 1.024 0 1.024 0s1.024 0 1.024-1.024c0 0 0 0 1.024 0s2.048 0 2.048 0c0 0 1.024 0 1.024 0l30.72 2.048c11.264-75.776 75.776-134.144 154.624-134.144 86.016 0 156.672 70.656 156.672 156.672s-69.632 156.672-156.672 156.672c-22.528 0-45.056-5.12-64.512-13.312l-41.984 78.848 15.36 52.224h24.576c6.144 0 11.264 7.168 11.264 13.312s-5.12 13.312-11.264 13.312h-83.968c-6.144 0-11.264-7.168-11.264-13.312s5.12-13.312 11.264-13.312h35.84l-12.288-36.864h-233.472l4.096 16.384c1.024 3.072 0 5.12-2.048 7.168-2.048 3.072-5.12 3.072-8.192 3.072h-69.632c-6.144 0-11.264-3.072-11.264-9.216s5.12-9.216 11.264-9.216h55.296l-4.096-22.528c0 0 0-1.024 0-1.024l-7.168-32.768-13.312-38.912c-13.312 4.096-26.624 5.12-40.96 5.12-86.016 3.072-156.672-67.584-156.672-153.6zM545.792 589.312l-59.392-200.704-176.128 181.248 4.096 19.456h231.424zM550.912 359.936l130.048 9.216c4.096 0 7.168 2.048 9.216 6.144 2.048 3.072 2.048 7.168 0 10.24l-61.44 114.688c16.384 7.168 33.792 11.264 52.224 11.264 71.68 0 130.048-58.368 130.048-130.048s-58.368-130.048-130.048-130.048c-66.56-1.024-120.832 46.080-130.048 108.544zM661.504 390.656l-112.64-8.192c0 45.056 23.552 84.992 59.392 107.52l53.248-99.328zM507.904 379.392l56.32 192.512 31.744-58.368c-44.032-27.648-71.68-76.8-71.68-132.096 0 0 0 0 0 0l-16.384-2.048zM102.4 381.44c0 71.68 58.368 130.048 130.048 130.048 11.264 0 22.528-1.024 32.768-4.096l-43.008-123.904c-2.048-6.144 1.024-12.288 7.168-14.336 1.024 0 2.048-1.024 4.096-1.024 4.096 0 9.216 3.072 10.24 7.168l43.008 123.904c45.056-20.48 76.8-65.536 76.8-118.784 0-71.68-58.368-130.048-130.048-130.048s-131.072 59.392-131.072 131.072zM940.032 224.768v0c-7.168 0-12.288 6.144-12.288 12.288v430.080c0 7.168 6.144 12.288 12.288 12.288v0c7.168 0 12.288-6.144 12.288-12.288v-430.080c0-7.168-6.144-12.288-12.288-12.288zM864.256 646.656h77.824c5.12 0 10.24 4.096 10.24 10.24v0c0 5.12-4.096 10.24-10.24 10.24h-77.824c-5.12 0-10.24-4.096-10.24-10.24v0c0-5.12 5.12-10.24 10.24-10.24zM864.256 245.248h77.824c5.12 0 10.24 4.096 10.24 10.24v0c0 5.12-4.096 10.24-10.24 10.24h-77.824c-5.12 0-10.24-4.096-10.24-10.24v0c0-5.12 5.12-10.24 10.24-10.24zM889.856 299.52h52.224c5.12 0 10.24 4.096 10.24 10.24v0c0 5.12-4.096 10.24-10.24 10.24h-52.224c-5.12 0-10.24-4.096-10.24-10.24v0c0-6.144 4.096-10.24 10.24-10.24zM889.856 344.576h52.224c5.12 0 10.24 4.096 10.24 10.24v0c0 5.12-4.096 10.24-10.24 10.24h-52.224c-5.12 0-10.24-4.096-10.24-10.24v0c0-5.12 4.096-10.24 10.24-10.24zM889.856 395.776h52.224c5.12 0 10.24 4.096 10.24 10.24v0c0 5.12-4.096 10.24-10.24 10.24h-52.224c-5.12 0-10.24-4.096-10.24-10.24v0c0-6.144 4.096-10.24 10.24-10.24zM889.856 498.176h52.224c5.12 0 10.24 4.096 10.24 10.24v0c0 5.12-4.096 10.24-10.24 10.24h-52.224c-5.12 0-10.24-4.096-10.24-10.24v0c0-5.12 4.096-10.24 10.24-10.24zM889.856 544.256h52.224c5.12 0 10.24 4.096 10.24 10.24v0c0 5.12-4.096 10.24-10.24 10.24h-52.224c-5.12 0-10.24-4.096-10.24-10.24v0c0-6.144 4.096-10.24 10.24-10.24zM889.856 594.432h52.224c5.12 0 10.24 4.096 10.24 10.24v0c0 5.12-4.096 10.24-10.24 10.24h-52.224c-5.12 0-10.24-4.096-10.24-10.24v0c0-5.12 4.096-10.24 10.24-10.24zM864.256 442.88h77.824c5.12 0 10.24 4.096 10.24 10.24v0c0 5.12-4.096 10.24-10.24 10.24h-77.824c-5.12 0-10.24-4.096-10.24-10.24v0c0-6.144 5.12-10.24 10.24-10.24z" />
<glyph unicode="&#xe601;" d="M285.696 414.208l-1.024-5.12-18.432-52.224c-17.408 5.12-36.864 7.168-56.32 7.168-116.736 0-210.944-95.232-210.944-211.968s95.232-210.944 210.944-210.944c116.736 0 210.944 95.232 210.944 210.944 0 86.016-52.224 160.768-126.976 193.536l10.24 29.696 164.864-171.008 24.576-78.848c6.144-21.504 26.624-34.816 47.104-34.816 4.096 0 9.216 1.024 14.336 2.048 14.336 4.096 24.576 14.336 29.696 26.624l18.432 1.024c15.36-102.4 103.424-180.224 208.896-180.224 116.736 0 210.944 95.232 210.944 211.968s-95.232 210.944-210.944 210.944c-30.72 0-60.416-6.144-87.040-18.432l-57.344 105.472 2.048 6.144 23.552 23.552c3.072 3.072 6.144 7.168 8.192 10.24 15.36 24.576 16.384 57.344-2.048 81.92l-131.072 186.368c-23.552 32.768-69.632 40.96-102.4 17.408-3.072-2.048-5.12-4.096-7.168-6.144-3.072-2.048-5.12-4.096-8.192-7.168l-171.008-189.44c-17.408-18.432-16.384-47.104 0-65.536h-56.32c-8.192 0-15.36-4.096-15.36-12.288s7.168-12.288 15.36-12.288h74.752l-6.144-29.696c0 0 0-1.024 0-1.024l-6.144-27.648c0 1.024 0 1.024 0 2.048zM387.072 153.088c0-97.28-78.848-176.128-176.128-176.128s-176.128 78.848-176.128 176.128c0 97.28 78.848 176.128 176.128 176.128 15.36 0 29.696-2.048 44.032-5.12l-58.368-166.912c-3.072-8.192 1.024-16.384 9.216-19.456 2.048-1.024 3.072-1.024 5.12-1.024 6.144 0 12.288 4.096 14.336 10.24l58.368 166.912c60.416-28.672 103.424-90.112 103.424-160.768zM332.8 494.080c0 0 0 1.024 0 1.024 8.192 3.072 14.336 7.168 20.48 13.312l119.808 132.096 100.352-142.336-27.648-27.648h-218.112l5.12 23.552zM446.464 374.272c-13.312-13.312-17.408-31.744-12.288-49.152l17.408-55.296-135.168 138.24 5.12 25.6h187.392l-62.464-59.392zM569.344 216.576l-33.792 108.544 91.136 89.088-57.344-197.632zM604.16 152.064c0 0 0-1.024 0 0l-14.336-2.048c0 2.048-1.024 3.072-1.024 5.12l-2.048 7.168 71.68 246.784 43.008-78.848c-59.392-37.888-97.28-103.424-97.28-178.176zM716.8 299.52l72.704-134.144-151.552-11.264c0 60.416 30.72 113.664 78.848 145.408zM813.056-24.064c-88.064 0-160.768 64.512-174.080 147.456l175.104 13.312c5.12 0 9.216 3.072 12.288 8.192 2.048 4.096 2.048 10.24 0 14.336l-82.944 154.624c21.504 9.216 45.056 14.336 69.632 14.336 97.28 0 176.128-78.848 176.128-176.128 0-96.256-78.848-176.128-176.128-176.128zM495.616 876.032c0-43.547-35.301-78.848-78.848-78.848s-78.848 35.301-78.848 78.848c0 43.547 35.301 78.848 78.848 78.848s78.848-35.301 78.848-78.848z" />
<glyph unicode="&#xe602;" d="M289.672 342.641l240.82-234.283c26.662-25.974 69.666-25.974 96.328 0l72.246 70.354c26.662 25.802 26.662 67.946 0 93.748l-240.82 234.283c-26.662 25.974-69.666 25.974-96.328 0l-72.246-70.354c-26.662-25.802-26.662-67.774 0-93.748zM990.113 785.578l-409.050-398.213 118.002-114.905c26.662-25.974 26.662-67.946 0-93.748l-72.246-70.354c-26.662-25.974-69.666-25.974-96.328 0l-74.482 72.418 4.3-4.644 72.246-70.354c26.662-25.802 69.666-25.802 96.328 0l529.803 515.698c26.662 25.974 26.662 67.946 0 93.748l-72.246 70.354c-26.662 25.974-69.666 25.974-96.328 0z" horiz-adv-x="1448" />
<glyph unicode="&#xe603;" d="M525.312 89.6l-18.432 11.264 18.432 29.696-19.456-29.696c-59.392 36.864-360.448 228.352-411.648 344.064-27.648 62.464-29.696 131.072-4.096 194.56 25.6 65.536 75.776 116.736 142.336 144.384 33.792 14.336 68.608 21.504 104.448 21.504 71.68 0 139.264-27.648 188.416-76.8 49.152 48.128 116.736 76.8 188.416 76.8 35.84 0 71.68-7.168 104.448-21.504 65.536-27.648 116.736-78.848 142.336-144.384 24.576-63.488 23.552-133.12-4.096-194.56-53.248-118.784-375.808-321.536-411.648-344.064l-19.456-11.264zM336.896 734.72c-26.624 0-52.224-5.12-77.824-15.36-48.128-20.48-84.992-57.344-103.424-104.448-18.432-45.056-16.384-95.232 3.072-140.288 33.792-75.776 244.736-224.256 366.592-301.056 136.192 86.016 333.824 229.376 365.568 301.056 20.48 45.056 21.504 94.208 3.072 140.288-18.432 47.104-55.296 83.968-103.424 104.448-24.576 10.24-51.2 15.36-77.824 15.36-63.488 0-122.88-29.696-159.744-79.872l-28.672-39.936-28.672 39.936c-34.816 50.176-95.232 79.872-158.72 79.872z" />
<glyph unicode="&#xe604;" d="M525.312 89.6l-18.432 11.264 18.432 29.696-19.456-29.696c-59.392 36.864-360.448 228.352-411.648 344.064-27.648 62.464-29.696 131.072-4.096 194.56 25.6 65.536 75.776 116.736 142.336 144.384 33.792 14.336 68.608 21.504 104.448 21.504 71.68 0 139.264-27.648 188.416-76.8 49.152 48.128 116.736 76.8 188.416 76.8 35.84 0 71.68-7.168 104.448-21.504 65.536-27.648 116.736-78.848 142.336-144.384 24.576-63.488 23.552-133.12-4.096-194.56-53.248-118.784-375.808-321.536-411.648-344.064l-19.456-11.264z" />
<glyph unicode="&#xe605;" d="M1024 448c0-282.77-229.23-512-512-512s-512 229.23-512 512c0 282.77 229.23 512 512 512s512-229.23 512-512z" />
<glyph unicode="&#xe606;" d="M365.714 484.571c0 0 292.571 0 292.571 0 20.187 0 36.571-16.384 36.571-36.571s-16.384-36.571-36.571-36.571c0 0-292.571 0-292.571 0-20.187 0-36.571 16.384-36.571 36.571s16.384 36.571 36.571 36.571z" />
<glyph unicode="&#xe607;" d="M1024 448c0-282.77-229.23-512-512-512s-512 229.23-512 512c0 282.77 229.23 512 512 512s512-229.23 512-512z" />
<glyph unicode="&#xe608;" d="M512 630.857c20.187 0 36.571-16.384 36.571-36.571 0 0 0-292.571 0-292.571 0-20.187-16.384-36.571-36.571-36.571s-36.571 16.384-36.571 36.571c0 0 0 292.571 0 292.571 0 20.187 16.384 36.571 36.571 36.571z" />
<glyph unicode="&#xe609;" d="M365.714 484.571c0 0 292.571 0 292.571 0 20.187 0 36.571-16.384 36.571-36.571s-16.384-36.571-36.571-36.571c0 0-292.571 0-292.571 0-20.187 0-36.571 16.384-36.571 36.571s16.384 36.571 36.571 36.571z" />
<glyph unicode="&#xe60a;" d="M798.72 90.624l-141.312 141.312c-61.44-39.936-136.192-60.416-217.088-53.248-157.696 14.336-284.672 141.312-302.080 297.984-22.528 207.872 145.408 382.976 351.232 372.736 169.984-8.192 309.248-146.432 319.488-316.416 4.096-72.704-14.336-140.288-49.152-196.608l142.336-142.336c28.672-28.672 28.672-74.752 0-103.424v0c-28.672-28.672-74.752-28.672-103.424 0zM695.296 484.864c18.432 147.456-105.472 270.336-251.904 251.904-100.352-12.288-181.248-93.184-193.536-193.536-18.432-147.456 105.472-271.36 251.904-251.904 100.352 12.288 181.248 93.184 193.536 193.536z" />
<glyph unicode="&#xe60b;" d="M333.824 163.328c-36.864 0-67.584 30.72-67.584 67.584s30.72 67.584 67.584 67.584c36.864 0 67.584-30.72 67.584-67.584s-30.72-67.584-67.584-67.584zM333.824 264.704c-18.432 0-33.792-15.36-33.792-33.792s15.36-33.792 33.792-33.792c18.432 0 33.792 15.36 33.792 33.792s-15.36 33.792-33.792 33.792zM704.512 163.328c-36.864 0-67.584 30.72-67.584 67.584s30.72 67.584 67.584 67.584c36.864 0 67.584-30.72 67.584-67.584s-29.696-67.584-67.584-67.584zM704.512 264.704c-18.432 0-33.792-15.36-33.792-33.792s15.36-33.792 33.792-33.792c18.432 0 33.792 15.36 33.792 33.792s-15.36 33.792-33.792 33.792zM704.512 264.704h-370.688c-9.216 0-16.384 7.168-16.384 16.384s7.168 16.384 16.384 16.384h357.376l104.448 450.56c2.048 7.168 8.192 13.312 16.384 13.312h117.76c9.216 0 16.384-7.168 16.384-16.384s-7.168-16.384-16.384-16.384h-104.448l-104.448-450.56c-1.024-8.192-8.192-13.312-16.384-13.312zM721.92 332.288h-438.272c-7.168 0-13.312 5.12-16.384 11.264l-101.376 303.104c-2.048 6.144-1.024 11.264 2.048 16.384 3.072 4.096 8.192 7.168 13.312 7.168h607.232c9.216 0 16.384-7.168 16.384-16.384s-7.168-16.384-16.384-16.384h-583.68l90.112-271.36h425.984c9.216 0 16.384-7.168 16.384-16.384 1.024-10.24-6.144-17.408-15.36-17.408z" />
<glyph unicode="&#xe60c;" d="M539.648 301.568l-240.64 241.664 14.336 14.336 226.304-226.304 227.328 226.304 14.336-14.336z" />
<glyph unicode="&#xe60d;" d="M667.648 429.568l-240.64-240.64-15.36 14.336 227.328 226.304-227.328 227.328 15.36 14.336z" />
<glyph unicode="&#xe610;" d="M913.408 741.888h-776.192c-28.672 0-51.2-23.552-51.2-51.2v-452.608c0-28.672 23.552-51.2 51.2-51.2h775.168c28.672 0 51.2 23.552 51.2 51.2v452.608c1.024 28.672-22.528 51.2-50.176 51.2zM875.52 690.688l-350.208-227.328-350.208 227.328h700.416zM137.216 237.056v415.744l373.76-242.688c4.096-3.072 9.216-4.096 14.336-4.096s10.24 1.024 14.336 4.096l373.76 242.688v-415.744h-776.192zM366.592 450.048l-187.392-120.832c-12.288-8.192-15.36-23.552-7.168-35.84 5.12-7.168 13.312-11.264 21.504-11.264 5.12 0 9.216 1.024 14.336 4.096l186.368 120.832c12.288 8.192 15.36 23.552 7.168 35.84-7.168 12.288-23.552 15.36-34.816 7.168zM871.424 329.216l-187.392 120.832c-12.288 8.192-27.648 4.096-35.84-7.168-8.192-12.288-4.096-27.648 7.168-35.84l186.368-120.832c4.096-3.072 9.216-4.096 14.336-4.096 8.192 0 16.384 4.096 21.504 11.264 8.192 12.288 5.12 28.672-6.144 35.84z" />
<glyph unicode="&#xe611;" d="M777.216 827.904l-265.216-265.216-265.216 265.216c-31.744 31.744-82.944 31.744-114.688 0s-31.744-82.944 0-114.688l265.216-265.216-265.216-265.216c-31.744-31.744-31.744-82.944 0-114.688s82.944-31.744 114.688 0l265.216 265.216 265.216-265.216c31.744-31.744 82.944-31.744 114.688 0s31.744 82.944 0 114.688l-265.216 265.216 265.216 265.216c31.744 31.744 31.744 82.944 0 114.688s-82.944 31.744-114.688 0z" />
<glyph unicode="&#xe618;" d="M95.232 430.592h834.56c12.288 0 21.504-10.24 21.504-21.504v0c0-12.288-10.24-21.504-21.504-21.504h-834.56c-12.288 0-21.504 10.24-21.504 21.504v0c-1.024 11.264 9.216 21.504 21.504 21.504zM95.232 655.872h834.56c12.288 0 21.504-10.24 21.504-21.504v0c0-12.288-10.24-21.504-21.504-21.504h-834.56c-12.288 0-21.504 10.24-21.504 21.504v0c-1.024 12.288 9.216 21.504 21.504 21.504zM95.232 205.312h834.56c12.288 0 21.504-10.24 21.504-21.504v0c0-12.288-10.24-21.504-21.504-21.504h-834.56c-12.288 0-21.504 10.24-21.504 21.504v0c-1.024 11.264 9.216 21.504 21.504 21.504z" />
<glyph unicode="&#xe619;" d="M872.448 788.992h-719.872l-83.968-222.208-1.024-5.12c0-47.104 37.888-86.016 84.992-86.016v-440.32h717.824v440.32c0 0 0 0 0 0 48.128 0 86.016 38.912 86.016 86.016l-83.968 227.328zM822.272 274.944h-620.544v215.040c9.216 6.144 17.408 14.336 23.552 23.552 15.36-23.552 41.984-37.888 71.68-37.888s56.32 15.36 71.68 37.888c15.36-23.552 41.984-37.888 71.68-37.888s56.32 15.36 71.68 37.888c15.36-23.552 41.984-37.888 71.68-37.888s56.32 15.36 71.68 37.888c15.36-23.552 41.984-37.888 71.68-37.888s56.32 15.36 71.68 37.888c6.144-9.216 13.312-16.384 22.528-22.528v-216.064zM153.6 861.696h717.824v-58.368h-717.824v58.368z" />
<glyph unicode="&#xe61a;" d="M999.164 305.53l-109.076 136.347 106.327 127.568c8.15 9.808 10.476 23.214 6.069 35.207-4.375 12.030-14.818 20.743-27.372 22.965l-150.215 26.281 11.502 170.178c0.777 12.171-4.657 23.955-14.428 31.187-9.877 7.268-22.719 8.926-34.113 4.62l-159.178-61.384-76.061 142.6c-6.033 11.394-17.817 18.626-30.728 18.908-13.233-0.213-24.944-6.387-31.541-17.463l-84.244-141.643-153.25 63.219c-11.571 4.761-24.731 3.175-34.713-4.234-10.090-7.337-15.592-19.367-14.605-31.786l13.442-164.604-158.47-36.266c-12.842-2.93-23.073-12.702-26.566-25.4-3.421-12.702 0.318-26.281 9.844-35.384l112.291-106.753-126.755-128.656c-9.349-9.49-12.665-23.423-8.572-36.089 4.093-12.734 14.923-22.051 28.080-24.272l167.992-28.365-26.949-188.211c-1.904-13.547 4.057-27.022 15.415-34.713 11.325-7.655 26.071-8.15 37.924-1.304l156.743 90.667 82.513-153.914c6.138-11.466 18.099-18.698 31.151-18.839 0.141 0 0.246 0 0.387 0 12.842 0 24.767 6.987 31.118 18.203l83.113 147.39 146.83-75.248c11.184-5.751 24.554-5.151 35.28 1.517 10.689 6.701 17.040 18.521 16.791 31.114l-3.916 169.936 154.308 18.803c12.907 1.553 23.915 9.949 28.784 21.978 4.902 11.99 2.926 25.75-5.151 35.84zM780.405 295.935c-18.24-2.186-31.855-17.922-31.432-36.266l3.244-142.278-123.894 63.464c-17.109 8.786-38.029 2.503-47.45-14.219l-68.085-120.686-69.32 129.19c-4.552 8.504-12.384 14.818-21.729 17.463-3.212 0.918-6.492 1.376-9.736 1.376-6.246 0-12.452-1.658-17.958-4.834l-124.92-72.286 21.451 149.861c2.717 19.226-10.371 37.111-29.492 40.359l-134.62 22.683 104.105 105.655c6.737 6.846 10.444 16.086 10.303 25.717-0.177 9.559-4.162 18.698-11.076 25.295l-90.381 85.938 123.685 28.293c17.322 3.952 29.138 20.039 27.693 37.747l-11.184 137.3 127.85-52.703c16.368-6.737 35.276-0.495 44.343 14.782l67.63 113.628 61.030-114.473c8.504-15.909 27.589-22.932 44.416-16.581l136.386 52.562-9.877-146.296c-1.235-18.24 11.502-34.467 29.492-37.642l121.041-21.202-85.493-102.552c-10.866-13.052-11.076-31.996-0.459-45.229l87.242-109.076-122.803-14.992zM629.945 627.653c-8.255 5.397-19.367 3.175-24.764-5.188l-216.252-329.355c-5.433-8.255-3.103-19.334 5.115-24.764 3.071-1.976 6.419-2.93 9.844-2.93 5.82 0 11.502 2.821 14.923 8.078l216.252 329.392c5.43 8.222 3.1 19.334-5.119 24.767zM463.82 527.674c0 31.996-25.894 57.822-57.854 57.822-31.927 0-57.786-25.822-57.786-57.822 0-31.927 25.858-57.786 57.786-57.786 31.96 0 57.854 25.858 57.854 57.786zM618.020 426.144c-31.963 0-57.858-25.891-57.858-57.854 0-31.927 25.894-57.822 57.858-57.822 31.927 0 57.858 25.894 57.858 57.822 0 31.963-25.931 57.854-57.858 57.854z" />
<glyph unicode="&#xe61b;" d="M624.239 430.025l241.68 240.648 14.277-14.277-226.199-226.371 226.199-227.231-14.277-14.277z" horiz-adv-x="1448" />
<glyph unicode="&#xe61c;" d="M752.734 557.659l240.648-241.68-14.277-14.449-226.371 226.371-227.231-226.371-14.449 14.449z" horiz-adv-x="1448" />
</font>
</defs>
</svg>
